<?xml version="1.0" standalone="no"?>
<!DOCTYPE svg PUBLIC "-//W3C//DTD SVG 1.1//EN" "http://www.w3.org/Graphics/SVG/1.1/DTD/svg11.dtd" >
<svg>
<metadata>
Created by FontForge 20110222 at Mon Mar  7 13:35:40 2011
 By www-data
Created by Sizenko Alexander. (c) 2008 Style-7. All rights reserved.
</metadata>
<defs>
<font id="http:" horiz-adv-x="473" >
  <font-face 
    font-family="Digital-7"
    font-weight="400"
    font-stretch="normal"
    units-per-em="1000"
    panose-1="2 0 5 3 0 0 0 0 0 0"
    ascent="800"
    descent="-200"
    x-height="645"
    cap-height="655"
    bbox="45 -109 500 764"
    underline-thickness="64"
    underline-position="-141"
    unicode-range="U+0020-2030"
  />
    <missing-glyph />
    <glyph glyph-name="space" unicode=" " horiz-adv-x="273" 
 />
    <glyph glyph-name="exclam" unicode="!" horiz-adv-x="164" 
d="M100 318l18 -18v-155h-73v119zM45 391v191l28 73c24 -7 39 -22 45 -46v-254l-18 -19zM118 0h-73v73h73v-73z" />
    <glyph glyph-name="quotedbl" unicode="&#x22;" horiz-adv-x="310" 
d="M118 509l-36 -36l-37 36v146h73v-146zM265 510l-37 -36l-36 36v145h73v-145z" />
    <glyph glyph-name="numbersign" unicode="#" horiz-adv-x="491" 
d="M264 436l36 -36l-36 -36h-37l-36 36l36 36h37zM264 291l36 -36l-36 -37h-37l-36 37l36 36h37zM136 345l37 37l36 -37v-36l-36 -36l-37 36v36zM282 345l36 37l37 -37v-36l-37 -36l-36 36v36zM136 509l37 36l36 -36v-54l-36 -37l-37 37v54zM282 509l36 36l37 -36v-54
l-37 -37l-36 37v54zM282 201l36 36l37 -36v-56l-37 -36l-36 36v56zM136 200l37 36l36 -36v-55l-36 -37l-37 37v55zM118 291l37 -36l-37 -37h-36l-37 37l37 36h36zM409 290l36 -36l-36 -37h-36l-37 37l37 36h36zM409 436l36 -36l-36 -36h-36l-37 36l37 36h36zM118 435l37 -36
l-37 -36h-36l-37 36l37 36h36z" />
    <glyph glyph-name="dollar" unicode="$" 
d="M355 364l36 -37l-36 -36h-237l-36 36l36 37h237zM409 318l18 -18v-255c-6 -24 -21 -39 -45 -45l-27 73v191zM364 0h-273c-24 6 -39 21 -46 45l73 28h218zM118 564v-173l-54 -55l-19 19v236zM119 582l-73 27c6 24 22 39 46 46h290c24 -7 39 -22 45 -46l-72 -27h-236z
M209 682v45l36 37l37 -37v-45h-73zM209 391v164h73v-164h-73zM209 100v164h73v-164h-73zM282 -27v-46l-37 -36l-36 36v46h73z" />
    <glyph glyph-name="percent" unicode="%" horiz-adv-x="545" 
d="M283 435l108 220c36 0 61 -13 73 -37l-140 -282h-41v99zM263 220l-108 -220c-37 0 -61 12 -73 36l140 282h41v-98zM173 582h-55l-73 27c7 24 22 39 46 46h109zM118 564v-55l-27 -73c-24 6 -39 22 -46 46v109zM136 509h55l73 -27c-6 -24 -22 -40 -46 -46h-109zM191 527v55
l27 73c24 -7 40 -22 46 -46v-109zM427 91v54l28 73c24 -6 39 -21 45 -45v-109zM409 145h-54l-73 28c6 24 21 39 45 45h109zM355 127v-54l-28 -73c-24 6 -39 21 -45 45v110zM373 73h54l73 -28c-6 -24 -21 -39 -45 -45h-110z" />
    <glyph glyph-name="ampersand" unicode="&#x26;" horiz-adv-x="509" 
d="M355 364l36 -37l-36 -36h-237l-36 36l36 37h237zM409 318l18 -18v-209h-45l-27 27v146zM445 0h-354c-24 6 -39 21 -46 45l73 28h291l55 -55zM45 64v236l19 18l54 -54v-173zM300 545h-145l-73 28c6 24 21 39 45 45h200zM155 527v-100l-55 -54l-18 18v164zM318 427v118
l27 73c25 -6 40 -21 46 -45v-182l-18 -18zM427 -18v-46l-18 -18l-54 55v9h72z" />
    <glyph glyph-name="quotesingle" unicode="'" horiz-adv-x="164" 
d="M118 509l-36 -36l-37 36v146h73v-146z" />
    <glyph glyph-name="parenleft" unicode="(" horiz-adv-x="318" 
d="M236 582h-100l-36 36l36 37h100l37 -37zM64 336l-19 19v209l46 45l27 -27v-191zM273 36l-37 -36h-100l-36 36l36 37h100zM118 264v-191l-27 -28l-46 46v209l19 18z" />
    <glyph glyph-name="parenright" unicode=")" horiz-adv-x="318" 
d="M82 73h100l36 -37l-36 -36h-100l-37 36zM255 318l18 -18v-209l-46 -46l-27 28v191zM45 618l37 37h100l36 -37l-36 -36h-100zM200 391v191l27 27l46 -45v-209l-18 -19z" />
    <glyph glyph-name="asterisk" unicode="*" horiz-adv-x="391" 
d="M159 391v73l36 36l37 -36v-73l63 36l50 -13l-13 -50l-63 -37l63 -36l13 -50l-50 -14l-63 37v-73l-37 -36l-36 36v73l-64 -37l-50 14l14 50l63 36l-63 37l-14 50l50 13z" />
    <glyph glyph-name="plus" unicode="+" horiz-adv-x="400" 
d="M164 364v81l36 37l36 -37v-81h82l37 -37l-37 -36h-82v-82l-36 -36l-36 36v82h-82l-37 36l37 37h82z" />
    <glyph glyph-name="comma" unicode="," horiz-adv-x="164" 
d="M118 -73l-36 -36l-37 36v146h73v-146z" />
    <glyph glyph-name="hyphen" unicode="-" horiz-adv-x="400" 
d="M318 364l37 -37l-37 -36h-236l-37 36l37 37h236z" />
    <glyph glyph-name="period" unicode="." horiz-adv-x="164" 
d="M118 0h-73v73h73v-73z" />
    <glyph glyph-name="slash" unicode="/" 
d="M246 435l109 220c36 0 60 -13 72 -37l-140 -282h-41v99zM226 220l-108 -220c-36 0 -60 12 -73 36l140 282h41v-98z" />
    <glyph glyph-name="zero" unicode="0" 
d="M409 318l18 -18v-255c-6 -24 -21 -39 -45 -45l-27 73v191zM364 0h-273c-24 6 -39 21 -46 45l73 28h218zM45 64v236l19 18l54 -54v-173zM336 582h-217l-73 27c6 24 22 39 46 46h272zM118 564v-173l-54 -55l-19 19v236zM355 391v191l27 73c24 -7 39 -22 45 -46v-254
l-18 -19z" />
    <glyph glyph-name="one" unicode="1" horiz-adv-x="164" 
d="M100 318l18 -18v-255c-6 -24 -21 -39 -45 -45l-28 73v191zM45 391v191l28 73c24 -7 39 -22 45 -46v-254l-18 -19z" />
    <glyph glyph-name="two" unicode="2" 
d="M355 364l36 -37l-36 -36h-237l-36 36l36 37h237zM391 0h-300c-24 6 -39 21 -46 45l73 28h246zM45 64v236l19 18l54 -54v-173zM336 582h-217l-73 27c6 24 22 39 46 46h272zM355 391v191l27 73c24 -7 39 -22 45 -46v-254l-18 -19z" />
    <glyph glyph-name="three" unicode="3" 
d="M355 364l36 -37l-36 -36h-237l-36 36l36 37h237zM409 318l18 -18v-255c-6 -24 -21 -39 -45 -45l-27 73v191zM364 0h-273c-24 6 -39 21 -46 45l73 28h218zM336 582h-217l-73 27c6 24 22 39 46 46h272zM355 391v191l27 73c24 -7 39 -22 45 -46v-254l-18 -19z" />
    <glyph glyph-name="four" unicode="4" 
d="M355 364l36 -37l-36 -36h-237l-36 36l36 37h237zM409 318l18 -18v-255c-6 -24 -21 -39 -45 -45l-27 73v191zM118 591v-200l-54 -55l-19 19v263zM355 391v191l27 73c24 -7 39 -22 45 -46v-254l-18 -19z" />
    <glyph glyph-name="five" unicode="5" 
d="M355 364l36 -37l-36 -36h-237l-36 36l36 37h237zM409 318l18 -18v-255c-6 -24 -21 -39 -45 -45l-27 73v191zM364 0h-273c-24 6 -39 21 -46 45l73 28h218zM364 582h-245l-73 27c6 24 22 39 46 46h299zM118 564v-173l-54 -55l-19 19v236z" />
    <glyph glyph-name="six" unicode="6" 
d="M355 364l36 -37l-36 -36h-237l-36 36l36 37h237zM409 318l18 -18v-255c-6 -24 -21 -39 -45 -45l-27 73v191zM364 0h-273c-24 6 -39 21 -46 45l73 28h218zM45 64v236l19 18l54 -54v-173zM364 582h-245l-73 27c6 24 22 39 46 46h299zM118 564v-173l-54 -55l-19 19v236z" />
    <glyph glyph-name="seven" unicode="7" 
d="M409 318l18 -18v-255c-6 -24 -21 -39 -45 -45l-27 73v191zM336 582h-217l-73 27c6 24 22 39 46 46h272zM118 564v-173l-54 -55l-19 19v236zM355 391v191l27 73c24 -7 39 -22 45 -46v-254l-18 -19z" />
    <glyph glyph-name="eight" unicode="8" 
d="M355 364l36 -37l-36 -36h-237l-36 36l36 37h237zM409 318l18 -18v-255c-6 -24 -21 -39 -45 -45l-27 73v191zM364 0h-273c-24 6 -39 21 -46 45l73 28h218zM45 64v236l19 18l54 -54v-173zM336 582h-217l-73 27c6 24 22 39 46 46h272zM118 564v-173l-54 -55l-19 19v236z
M355 391v191l27 73c24 -7 39 -22 45 -46v-254l-18 -19z" />
    <glyph glyph-name="nine" unicode="9" 
d="M355 364l36 -37l-36 -36h-237l-36 36l36 37h237zM409 318l18 -18v-255c-6 -24 -21 -39 -45 -45l-27 73v191zM364 0h-273c-24 6 -39 21 -46 45l73 28h218zM336 582h-217l-73 27c6 24 22 39 46 46h272zM118 564v-173l-54 -55l-19 19v236zM355 391v191l27 73
c24 -7 39 -22 45 -46v-254l-18 -19z" />
    <glyph glyph-name="colon" unicode=":" horiz-adv-x="164" 
d="M118 145h-73v73h73v-73zM118 436h-73v73h73v-73z" />
    <glyph glyph-name="semicolon" unicode=";" horiz-adv-x="164" 
d="M118 436h-73v73h73v-73zM118 -73l-36 -36l-37 36v146h73v-146z" />
    <glyph glyph-name="less" unicode="&#x3c;" horiz-adv-x="336" 
d="M145 336h-100l182 182h37l27 -35zM291 172l-27 -36h-37l-182 182h100z" />
    <glyph glyph-name="equal" unicode="=" horiz-adv-x="400" 
d="M318 436l37 -36l-37 -36h-236l-37 36l37 36h236zM318 290l37 -36l-37 -37h-236l-37 37l37 36h236z" />
    <glyph glyph-name="greater" unicode="&#x3e;" horiz-adv-x="336" 
d="M45 483l28 35h36l182 -182h-100zM191 318h100l-182 -182h-36l-28 36z" />
    <glyph glyph-name="question" unicode="?" 
d="M355 364l36 -37l-36 -36h-237l-36 36l36 37h237zM45 145v155l19 18l54 -54v-119h-73zM336 582h-217l-73 27c6 24 22 39 46 46h272zM355 391v191l27 73c24 -7 39 -22 45 -46v-254l-18 -19zM118 0h-73v73h73v-73z" />
    <glyph glyph-name="at" unicode="@" 
d="M409 318l18 -18v-109c-6 -24 -21 -39 -45 -46l-27 73v46zM364 0h-273c-24 6 -39 21 -46 45l73 28h218zM45 64v236l19 18l54 -54v-173zM336 582h-217l-73 27c6 24 22 39 46 46h272zM118 564v-173l-54 -55l-19 19v236zM355 391v191l27 73c24 -7 39 -22 45 -46v-254l-18 -19
zM364 145h-128c-24 6 -39 21 -45 45l73 28h72zM191 209v91l18 18l55 -54v-28zM264 418v-27l-55 -55l-18 19v90zM336 436h-72l-73 29c6 24 21 39 45 45l100 -1v-73z" />
    <glyph glyph-name="A" unicode="A" 
d="M355 364l36 -37l-36 -36h-237l-36 36l36 37h237zM409 318l18 -18v-255c-6 -24 -21 -39 -45 -45l-27 73v191zM336 582h-217l-73 27c6 24 22 39 46 46h272zM118 564v-173l-54 -55l-19 19v236zM355 391v191l27 73c24 -7 39 -22 45 -46v-254l-18 -19zM118 264v-191l-27 -73
c-24 6 -39 21 -46 45v255l19 18z" />
    <glyph glyph-name="B" unicode="B" 
d="M355 364l36 -37l-36 -36h-237l-36 36l36 37h237zM45 64v236l19 18l54 -54v-173zM336 582h-218l-73 27v46h291l37 -37zM118 564v-173l-54 -55l-19 19v236zM355 391v191l27 27l45 -45v-209l-18 -19zM409 318l18 -18v-209l-45 -46l-27 28v191zM372 36l-37 -36h-290v45l73 28
h217z" />
    <glyph glyph-name="C" unicode="C" horiz-adv-x="436" 
d="M391 0h-300c-24 6 -39 21 -46 45l73 28h246zM45 64v236l19 18l54 -54v-173zM364 582h-245l-73 27c6 24 22 39 46 46h299zM118 564v-173l-54 -55l-19 19v236z" />
    <glyph glyph-name="D" unicode="D" 
d="M45 64v236l19 18l54 -54v-173zM336 582h-218l-73 27v46h291l37 -37zM118 564v-173l-54 -55l-19 19v236zM355 391v191l27 27l45 -45v-209l-18 -19zM409 318l18 -18v-209l-45 -46l-27 28v191zM372 36l-37 -36h-290v45l73 28h217z" />
    <glyph glyph-name="E" unicode="E" horiz-adv-x="436" 
d="M355 364l36 -37l-36 -36h-237l-36 36l36 37h237zM391 0h-300c-24 6 -39 21 -46 45l73 28h246zM45 64v236l19 18l54 -54v-173zM364 582h-245l-73 27c6 24 22 39 46 46h299zM118 564v-173l-54 -55l-19 19v236z" />
    <glyph glyph-name="F" unicode="F" horiz-adv-x="436" 
d="M355 364l36 -37l-36 -36h-237l-36 36l36 37h237zM364 582h-245l-73 27c6 24 22 39 46 46h299zM118 564v-173l-54 -55l-19 19v236zM118 264v-191l-27 -73c-24 6 -39 21 -46 45v255l19 18z" />
    <glyph glyph-name="G" unicode="G" 
d="M355 364l36 -37l-36 -36h-82l-37 36l37 37h82zM409 318l18 -18v-255c-6 -24 -21 -39 -45 -45l-27 73v191zM364 0h-273c-24 6 -39 21 -46 45l73 28h218zM45 64v236l19 18l54 -54v-173zM364 582h-245l-73 27c6 24 22 39 46 46h299zM118 564v-173l-54 -55l-19 19v236z" />
    <glyph glyph-name="H" unicode="H" 
d="M355 364l36 -37l-36 -36h-237l-36 36l36 37h237zM409 318l18 -18v-255c-6 -24 -21 -39 -45 -45l-27 73v191zM355 391v191l27 73c24 -7 39 -22 45 -46v-254l-18 -19zM118 264v-191l-27 -73c-24 6 -39 21 -46 45v255l19 18zM64 327l-19 18v255c7 24 22 39 46 45l27 -72
v-191z" />
    <glyph glyph-name="I" unicode="I" horiz-adv-x="164" 
d="M45 391v191l28 73c24 -7 39 -22 45 -46v-254l-18 -19zM100 327l18 -18v-254c-6 -25 -21 -40 -45 -46l-28 73v191z" />
    <glyph glyph-name="J" unicode="J" 
d="M409 318l18 -18v-255c-6 -24 -21 -39 -45 -45l-27 73v191zM364 0h-273c-24 6 -39 21 -46 45l73 28h218zM45 64v236l19 18l54 -54v-173zM355 391v191l27 73c24 -7 39 -22 45 -46v-254l-18 -19z" />
    <glyph glyph-name="K" unicode="K" 
d="M355 364l36 -37l-36 -36h-237l-36 36l36 37h237zM409 318l18 -18v-255c-6 -24 -21 -39 -45 -45l-27 73v191zM136 436l219 219c36 0 60 -13 72 -37l-236 -236h-55v54zM118 264v-191l-27 -73c-24 6 -39 21 -46 45v255l19 18zM64 336l-19 19v254c7 24 22 39 46 46l27 -73
v-191z" />
    <glyph glyph-name="L" unicode="L" 
d="M118 264v-191l-27 -73c-24 6 -39 21 -46 45v255l19 18zM136 73h219l72 -28c-6 -24 -21 -39 -45 -45h-273zM64 336l-19 19v254c7 24 22 39 46 46l27 -73v-191z" />
    <glyph glyph-name="M" unicode="M" 
d="M273 355l-37 -37l-36 37v209h73v-209zM409 318l18 -18v-255c-6 -24 -21 -39 -45 -45l-27 73v191zM336 582h-217l-73 27c6 24 22 39 46 46h272zM118 564v-173l-54 -55l-19 19v236zM355 391v191l27 73c24 -7 39 -22 45 -46v-254l-18 -19zM118 264v-191l-27 -73
c-24 6 -39 21 -46 45v255l19 18z" />
    <glyph glyph-name="N" unicode="N" 
d="M118 264v-191l-27 -73c-24 6 -39 21 -46 45v255l19 18zM336 382h-63l-137 136v55h55l145 -146v-45zM409 318l18 -18v-255c-6 -24 -21 -39 -45 -45l-27 73v191zM355 382v191l27 72c24 -6 39 -21 45 -45v-255l-18 -18zM64 327l-19 18v255c7 24 22 39 46 45l27 -72v-191z
" />
    <glyph glyph-name="O" unicode="O" 
d="M336 582h-200l-36 36l36 37h200l37 -37zM355 391v191l27 27l45 -45v-209l-18 -19zM409 318l18 -18v-209l-45 -46l-27 28v191zM64 336l-19 19v209l46 45l27 -27v-191zM373 36l-37 -36h-200l-36 36l36 37h200zM118 264v-191l-27 -28l-46 46v209l19 18z" />
    <glyph glyph-name="P" unicode="P" 
d="M355 364l36 -37l-36 -36h-237l-36 36l36 37h237zM336 582h-218l-73 27v46h291l37 -37zM118 564v-173l-54 -55l-19 19v236zM355 391v191l27 27l45 -45v-209l-18 -19zM118 264v-191l-27 -73c-24 6 -39 21 -46 45v255l19 18z" />
    <glyph glyph-name="Q" unicode="Q" horiz-adv-x="482" 
d="M409 318l18 -18v-218l-72 73v109zM345 0h-254c-24 6 -39 21 -46 45l73 28h155zM45 64v236l19 18l54 -54v-173zM336 582h-217l-73 27c6 24 22 39 46 46h272zM118 564v-173l-54 -55l-19 19v236zM355 391v191l27 73c24 -7 39 -22 45 -46v-254l-18 -19zM264 164h54l118 -119
v-54h-54l-118 118v55z" />
    <glyph glyph-name="R" unicode="R" 
d="M355 364l36 -37l-36 -36h-237l-36 36l36 37h237zM136 273h55l236 -237c-12 -24 -36 -36 -72 -36l-219 218v55zM118 264v-191l-27 -73c-24 6 -39 21 -46 45v255l19 18zM336 582h-217l-73 27c6 24 22 39 46 46h272zM355 391v191l27 73c24 -7 39 -22 45 -46v-254l-18 -19z
M118 564v-173l-54 -55l-19 19v236z" />
    <glyph glyph-name="S" unicode="S" 
d="M355 364l36 -37l-36 -36h-237l-36 36l36 37h237zM409 318l18 -18v-255c-6 -24 -21 -39 -45 -45l-27 73v191zM364 0h-273c-24 6 -39 21 -46 45l73 28h218zM118 564v-173l-54 -55l-19 19v236zM119 582l-73 27c6 24 22 39 46 46h290c24 -7 39 -22 45 -46l-72 -27h-236z" />
    <glyph glyph-name="T" unicode="T" horiz-adv-x="472" 
d="M235 318l37 -36v-237c-6 -24 -21 -39 -46 -45l-27 73v209zM199 373v191h73v-191l-37 -37zM118 582l-73 27c7 24 22 39 46 46h290c24 -7 39 -22 45 -46l-72 -27h-236z" />
    <glyph glyph-name="U" unicode="U" 
d="M409 318l18 -18v-255c-6 -24 -21 -39 -45 -45l-27 73v191zM364 0h-273c-24 6 -39 21 -46 45l73 28h218zM45 64v236l19 18l54 -54v-173zM355 391v191l27 73c24 -7 39 -22 45 -46v-254l-18 -19zM64 327l-19 18v255c7 24 22 39 46 45l27 -72v-191z" />
    <glyph glyph-name="V" unicode="V" 
d="M64 327l-19 18v255c7 24 22 39 46 45l27 -72v-191zM355 382v191l27 72c24 -6 39 -21 45 -45v-255l-18 -18zM227 109v-109l-182 236v55l19 18l54 -54zM355 255l54 54l18 -18v-55l-182 -236v109z" />
    <glyph glyph-name="W" unicode="W" 
d="M273 91h-73v209l36 36l37 -36v-209zM355 391v191l27 73c24 -7 39 -22 45 -46v-254l-18 -19zM364 0h-272c-24 6 -40 21 -46 45l73 28h217zM45 64v236l19 18l54 -54v-173zM409 318l18 -18v-255c-6 -24 -21 -39 -45 -45l-27 73v191zM64 336l-19 19v254c7 24 22 39 46 46
l27 -73v-191z" />
    <glyph glyph-name="X" unicode="X" 
d="M245 318h41l140 -282c-12 -24 -36 -36 -72 -36l-109 220v98zM246 435l109 220c36 0 60 -13 72 -37l-140 -282h-41v99zM226 220l-108 -220c-36 0 -60 12 -73 36l140 282h41v-98zM227 336h-41l-140 282c12 24 37 37 73 37l108 -221v-98z" />
    <glyph glyph-name="Y" unicode="Y" 
d="M355 364l36 -37l-36 -36h-237l-36 36l36 37h237zM409 318l18 -18v-255c-6 -24 -21 -39 -45 -45l-27 73v191zM364 0h-273c-24 6 -39 21 -46 45l73 28h218zM118 591v-200l-54 -55l-19 19v263zM355 391v191l27 73c24 -7 39 -22 45 -46v-254l-18 -19z" />
    <glyph glyph-name="Z" unicode="Z" 
d="M391 0h-255l37 73h191zM300 582h-181l-73 27c6 24 22 39 46 46h244zM236 391l119 264c36 0 60 -13 72 -37l-136 -282h-55v55zM245 264l-127 -264c-36 0 -60 12 -73 36l146 282h54v-54z" />
    <glyph glyph-name="bracketleft" unicode="[" horiz-adv-x="282" 
d="M45 64v236l19 18l54 -54v-173zM182 582h-63l-73 27c6 24 22 39 46 46h126l18 -19zM118 564v-173l-54 -55l-19 19v236zM236 18l-18 -18h-126c-24 6 -40 21 -46 45l73 28h63z" />
    <glyph glyph-name="backslash" unicode="\" horiz-adv-x="471" 
d="M245 318h40l140 -282c-12 -24 -36 -36 -72 -36l-108 220v98zM226 336h-41l-140 282c13 24 37 37 73 37l108 -221v-98z" />
    <glyph glyph-name="bracketright" unicode="]" horiz-adv-x="282" 
d="M218 318l18 -18v-255c-6 -24 -21 -39 -45 -45l-27 73v191zM145 582h-45l-55 54l19 19h109zM164 391v191l27 73c24 -7 39 -22 45 -46v-254l-18 -19zM173 0h-109l-19 18l55 55h45z" />
    <glyph glyph-name="asciicircum" unicode="^" horiz-adv-x="472" 
d="M245 555v100l181 -182v-37l-35 -27zM81 409l-36 27v37l182 182l-1 -100z" />
    <glyph glyph-name="underscore" unicode="_" horiz-adv-x="472" 
d="M354 73l72 -28c-6 -24 -21 -39 -45 -45h-290c-24 6 -39 21 -46 45l73 28h236z" />
    <glyph glyph-name="grave" unicode="`" horiz-adv-x="255" 
d="M209 555v-37l-36 -9l-128 127l10 37h36z" />
    <glyph glyph-name="a" unicode="a" 
d="M355 364l36 -37l-36 -36h-237l-36 36l36 37h237zM409 318l18 -18v-255c-6 -24 -21 -39 -45 -45l-27 73v191zM336 582h-217l-73 27c6 24 22 39 46 46h272zM118 564v-173l-54 -55l-19 19v236zM355 391v191l27 73c24 -7 39 -22 45 -46v-254l-18 -19zM118 264v-191l-27 -73
c-24 6 -39 21 -46 45v255l19 18z" />
    <glyph glyph-name="b" unicode="b" 
d="M355 364l36 -37l-36 -36h-237l-36 36l36 37h237zM45 64v236l19 18l54 -54v-173zM336 582h-218l-73 27v46h291l37 -37zM118 564v-173l-54 -55l-19 19v236zM355 391v191l27 27l45 -45v-209l-18 -19zM409 318l18 -18v-209l-45 -46l-27 28v191zM372 36l-37 -36h-290v45l73 28
h217z" />
    <glyph glyph-name="c" unicode="c" horiz-adv-x="436" 
d="M391 0h-300c-24 6 -39 21 -46 45l73 28h246zM45 64v236l19 18l54 -54v-173zM364 582h-245l-73 27c6 24 22 39 46 46h299zM118 564v-173l-54 -55l-19 19v236z" />
    <glyph glyph-name="d" unicode="d" 
d="M45 64v236l19 18l54 -54v-173zM336 582h-218l-73 27v46h291l37 -37zM118 564v-173l-54 -55l-19 19v236zM355 391v191l27 27l45 -45v-209l-18 -19zM409 318l18 -18v-209l-45 -46l-27 28v191zM372 36l-37 -36h-290v45l73 28h217z" />
    <glyph glyph-name="e" unicode="e" horiz-adv-x="436" 
d="M355 364l36 -37l-36 -36h-237l-36 36l36 37h237zM391 0h-300c-24 6 -39 21 -46 45l73 28h246zM45 64v236l19 18l54 -54v-173zM364 582h-245l-73 27c6 24 22 39 46 46h299zM118 564v-173l-54 -55l-19 19v236z" />
    <glyph glyph-name="f" unicode="f" horiz-adv-x="436" 
d="M355 364l36 -37l-36 -36h-237l-36 36l36 37h237zM364 582h-245l-73 27c6 24 22 39 46 46h299zM118 564v-173l-54 -55l-19 19v236zM118 264v-191l-27 -73c-24 6 -39 21 -46 45v255l19 18z" />
    <glyph glyph-name="g" unicode="g" 
d="M355 364l36 -37l-36 -36h-82l-37 36l37 37h82zM409 318l18 -18v-255c-6 -24 -21 -39 -45 -45l-27 73v191zM364 0h-273c-24 6 -39 21 -46 45l73 28h218zM45 64v236l19 18l54 -54v-173zM364 582h-245l-73 27c6 24 22 39 46 46h299zM118 564v-173l-54 -55l-19 19v236z" />
    <glyph glyph-name="h" unicode="h" 
d="M355 364l36 -37l-36 -36h-237l-36 36l36 37h237zM409 318l18 -18v-255c-6 -24 -21 -39 -45 -45l-27 73v191zM355 391v191l27 73c24 -7 39 -22 45 -46v-254l-18 -19zM118 264v-191l-27 -73c-24 6 -39 21 -46 45v255l19 18zM64 327l-19 18v255c7 24 22 39 46 45l27 -72
v-191z" />
    <glyph glyph-name="i" unicode="i" horiz-adv-x="164" 
d="M45 391v191l28 73c24 -7 39 -22 45 -46v-254l-18 -19zM100 327l18 -18v-254c-6 -25 -21 -40 -45 -46l-28 73v191z" />
    <glyph glyph-name="j" unicode="j" 
d="M409 318l18 -18v-255c-6 -24 -21 -39 -45 -45l-27 73v191zM364 0h-273c-24 6 -39 21 -46 45l73 28h218zM45 64v236l19 18l54 -54v-173zM355 391v191l27 73c24 -7 39 -22 45 -46v-254l-18 -19z" />
    <glyph glyph-name="k" unicode="k" 
d="M355 364l36 -37l-36 -36h-237l-36 36l36 37h237zM409 318l18 -18v-255c-6 -24 -21 -39 -45 -45l-27 73v191zM136 436l219 219c36 0 60 -13 72 -37l-236 -236h-55v54zM118 264v-191l-27 -73c-24 6 -39 21 -46 45v255l19 18zM64 336l-19 19v254c7 24 22 39 46 46l27 -73
v-191z" />
    <glyph glyph-name="l" unicode="l" 
d="M118 264v-191l-27 -73c-24 6 -39 21 -46 45v255l19 18zM136 73h219l72 -28c-6 -24 -21 -39 -45 -45h-273zM64 336l-19 19v254c7 24 22 39 46 46l27 -73v-191z" />
    <glyph glyph-name="m" unicode="m" 
d="M273 355l-37 -37l-36 37v209h73v-209zM409 318l18 -18v-255c-6 -24 -21 -39 -45 -45l-27 73v191zM336 582h-217l-73 27c6 24 22 39 46 46h272zM118 564v-173l-54 -55l-19 19v236zM355 391v191l27 73c24 -7 39 -22 45 -46v-254l-18 -19zM118 264v-191l-27 -73
c-24 6 -39 21 -46 45v255l19 18z" />
    <glyph glyph-name="n" unicode="n" 
d="M118 264v-191l-27 -73c-24 6 -39 21 -46 45v255l19 18zM336 382h-63l-137 136v55h55l145 -146v-45zM409 318l18 -18v-255c-6 -24 -21 -39 -45 -45l-27 73v191zM355 382v191l27 72c24 -6 39 -21 45 -45v-255l-18 -18zM64 327l-19 18v255c7 24 22 39 46 45l27 -72v-191z
" />
    <glyph glyph-name="o" unicode="o" 
d="M336 582h-200l-36 36l36 37h200l37 -37zM355 391v191l27 27l45 -45v-209l-18 -19zM409 318l18 -18v-209l-45 -46l-27 28v191zM64 336l-19 19v209l46 45l27 -27v-191zM373 36l-37 -36h-200l-36 36l36 37h200zM118 264v-191l-27 -28l-46 46v209l19 18z" />
    <glyph glyph-name="p" unicode="p" 
d="M355 364l36 -37l-36 -36h-237l-36 36l36 37h237zM336 582h-218l-73 27v46h291l37 -37zM118 564v-173l-54 -55l-19 19v236zM355 391v191l27 27l45 -45v-209l-18 -19zM118 264v-191l-27 -73c-24 6 -39 21 -46 45v255l19 18z" />
    <glyph glyph-name="q" unicode="q" horiz-adv-x="482" 
d="M409 318l18 -18v-218l-72 73v109zM345 0h-254c-24 6 -39 21 -46 45l73 28h155zM45 64v236l19 18l54 -54v-173zM336 582h-217l-73 27c6 24 22 39 46 46h272zM118 564v-173l-54 -55l-19 19v236zM355 391v191l27 73c24 -7 39 -22 45 -46v-254l-18 -19zM264 164h54l118 -119
v-54h-54l-118 118v55z" />
    <glyph glyph-name="r" unicode="r" 
d="M355 364l36 -37l-36 -36h-237l-36 36l36 37h237zM136 273h55l236 -237c-12 -24 -36 -36 -72 -36l-219 218v55zM118 264v-191l-27 -73c-24 6 -39 21 -46 45v255l19 18zM336 582h-217l-73 27c6 24 22 39 46 46h272zM355 391v191l27 73c24 -7 39 -22 45 -46v-254l-18 -19z
M118 564v-173l-54 -55l-19 19v236z" />
    <glyph glyph-name="s" unicode="s" 
d="M355 364l36 -37l-36 -36h-237l-36 36l36 37h237zM409 318l18 -18v-255c-6 -24 -21 -39 -45 -45l-27 73v191zM364 0h-273c-24 6 -39 21 -46 45l73 28h218zM118 564v-173l-54 -55l-19 19v236zM119 582l-73 27c6 24 22 39 46 46h290c24 -7 39 -22 45 -46l-72 -27h-236z" />
    <glyph glyph-name="t" unicode="t" horiz-adv-x="472" 
d="M235 318l37 -36v-237c-6 -24 -21 -39 -46 -45l-27 73v209zM199 373v191h73v-191l-37 -37zM118 582l-73 27c7 24 22 39 46 46h290c24 -7 39 -22 45 -46l-72 -27h-236z" />
    <glyph glyph-name="u" unicode="u" 
d="M409 318l18 -18v-255c-6 -24 -21 -39 -45 -45l-27 73v191zM364 0h-273c-24 6 -39 21 -46 45l73 28h218zM45 64v236l19 18l54 -54v-173zM355 391v191l27 73c24 -7 39 -22 45 -46v-254l-18 -19zM64 327l-19 18v255c7 24 22 39 46 45l27 -72v-191z" />
    <glyph glyph-name="v" unicode="v" 
d="M64 327l-19 18v255c7 24 22 39 46 45l27 -72v-191zM355 382v191l27 72c24 -6 39 -21 45 -45v-255l-18 -18zM227 109v-109l-182 236v55l19 18l54 -54zM355 255l54 54l18 -18v-55l-182 -236v109z" />
    <glyph glyph-name="w" unicode="w" 
d="M273 91h-73v209l36 36l37 -36v-209zM355 391v191l27 73c24 -7 39 -22 45 -46v-254l-18 -19zM364 0h-272c-24 6 -40 21 -46 45l73 28h217zM45 64v236l19 18l54 -54v-173zM409 318l18 -18v-255c-6 -24 -21 -39 -45 -45l-27 73v191zM64 336l-19 19v254c7 24 22 39 46 46
l27 -73v-191z" />
    <glyph glyph-name="x" unicode="x" 
d="M245 318h41l140 -282c-12 -24 -36 -36 -72 -36l-109 220v98zM246 435l109 220c36 0 60 -13 72 -37l-140 -282h-41v99zM226 220l-108 -220c-36 0 -60 12 -73 36l140 282h41v-98zM227 336h-41l-140 282c12 24 37 37 73 37l108 -221v-98z" />
    <glyph glyph-name="y" unicode="y" 
d="M355 364l36 -37l-36 -36h-237l-36 36l36 37h237zM409 318l18 -18v-255c-6 -24 -21 -39 -45 -45l-27 73v191zM364 0h-273c-24 6 -39 21 -46 45l73 28h218zM118 591v-200l-54 -55l-19 19v263zM355 391v191l27 73c24 -7 39 -22 45 -46v-254l-18 -19z" />
    <glyph glyph-name="z" unicode="z" 
d="M391 0h-255l37 73h191zM300 582h-181l-73 27c6 24 22 39 46 46h244zM236 391l119 264c36 0 60 -13 72 -37l-136 -282h-55v55zM245 264l-127 -264c-36 0 -60 12 -73 36l146 282h54v-54z" />
    <glyph glyph-name="braceleft" unicode="{" horiz-adv-x="391" 
d="M155 64v200l54 54l18 -18v-209zM291 582h-63l-73 27c7 24 22 39 46 46h126l18 -19zM227 564v-209l-18 -19l-54 55v200zM345 18l-18 -18h-126c-24 6 -39 21 -46 45l73 28h63zM145 364l37 -37l-37 -36h-63l-37 36l37 37h63z" />
    <glyph glyph-name="bar" unicode="|" horiz-adv-x="164" 
d="M118 45c-6 -24 -21 -39 -45 -45l-28 73v509l28 73c24 -7 39 -22 45 -46v-564z" />
    <glyph glyph-name="braceright" unicode="}" horiz-adv-x="391" 
d="M164 91v209l18 18l54 -54v-200zM45 636l19 19h126c24 -7 39 -22 45 -46l-72 -27h-63zM236 591v-200l-54 -55l-18 19v209zM100 73h63l72 -28c-6 -24 -21 -39 -45 -45h-126l-19 18zM309 364l36 -37l-36 -36h-64l-36 36l36 37h64z" />
    <glyph glyph-name="asciitilde" unicode="~" horiz-adv-x="491" 
d="M264 436l36 -36l-36 -36h-37l-36 36l36 36h37zM118 435l37 -36l-37 -36h-36l-37 36l37 36h36zM409 436l36 -36l-36 -36h-36l-37 36l37 36h36zM191 491l36 -36l-36 -37h-36l-37 37l37 36h36zM336 373l37 -37l-37 -36h-36l-36 36l36 37h36z" />
    <glyph glyph-name="perthousand" unicode="&#x2030;" horiz-adv-x="536" 
d="M254 363l-146 -145c-36 0 -53 17 -53 54l171 173h28v-82zM127 582h-9l-73 27c7 24 22 39 46 46h64zM118 564v-55l-27 -73c-24 6 -39 22 -46 46v109zM136 509h9l73 -27c-6 -24 -21 -40 -45 -46h-64zM145 527v55l28 73c24 -7 39 -22 45 -46v-109zM400 145h-9l-73 28
c6 24 21 39 46 45h63zM392 127v-54l-27 -73c-25 6 -40 21 -46 45v110zM409 73h9l73 -28c-6 -24 -21 -39 -46 -45h-63zM418 91v54l27 73c25 -6 40 -21 46 -45v-109zM209 91v54l27 73c25 -6 40 -21 46 -45v-109zM200 72h9l73 -27c-6 -25 -21 -40 -46 -46h-63zM182 127v-54
l-27 -73c-25 6 -40 21 -46 45v110zM191 145h-9l-73 28c6 24 21 39 46 45h63zM264 483l145 144c36 0 54 -17 54 -53l-172 -174l-27 1v82z" />
    <glyph glyph-name="quoteleft" unicode="&#x2018;" horiz-adv-x="164" 
d="M118 473h-73v145l37 37l36 -37v-145z" />
    <glyph glyph-name="quoteright" unicode="&#x2019;" horiz-adv-x="164" 
d="M118 509l-36 -36l-37 36v146h73v-146z" />
    <glyph glyph-name="quotedblleft" unicode="&#x201c;" horiz-adv-x="309" 
d="M118 474h-73v145l37 36l36 -36v-145zM264 473h-73v145l36 37l37 -37v-145z" />
    <glyph glyph-name="quotedblright" unicode="&#x201d;" horiz-adv-x="310" 
d="M118 509l-36 -36l-37 36v146h73v-146zM265 510l-37 -36l-36 36v145h73v-145z" />
    <glyph glyph-name="bullet" unicode="&#x2022;" horiz-adv-x="355" 
d="M177 200c-74 0 -132 58 -132 132c0 73 59 132 132 132s132 -60 132 -132c0 -74 -58 -132 -132 -132z" />
    <glyph glyph-name="endash" unicode="&#x2013;" horiz-adv-x="491" 
d="M409 364l36 -37l-36 -36h-327l-37 36l37 37h327z" />
    <glyph glyph-name="emdash" unicode="&#x2014;" horiz-adv-x="527" 
d="M445 364l37 -37l-37 -36h-363l-37 36l37 37h363z" />
    <glyph glyph-name="copyright" unicode="&#xa9;" horiz-adv-x="527" 
d="M418 0h-327c-24 6 -39 21 -46 45l73 28h273zM391 582h-272l-73 27c6 24 22 39 46 46h326zM118 91l-73 -27v527l73 -27v-473zM482 45c-6 -24 -21 -39 -46 -45l-27 73v509l27 73c25 -7 40 -22 46 -46v-564zM345 436h-118l-72 28c6 24 21 39 45 45h173zM227 418v-200
l-27 -73c-24 7 -39 22 -45 46v254zM245 218h55l73 -27c-6 -24 -21 -39 -46 -46h-109z" />
  </font>
</defs>
</svg>
